Linkin Park - The Hunting Party (2014)

Linkin Park - The Hunting Party (2014)

Bild anzeigen

Trackliste:

01. Keys to the Kingdom
02. All for Nothing
03. Guilty All the Same
04. The Summoning
05. War
06. Wastelands
07. Until It's Gone
08. Rebellion
09. Mark the Graves
10. Drawbar
11. Final Masquerade
12. A Line in the Sand

Log:

Code:

Exact Audio Copy V1.0 beta 3 from 29. August 2011

EAC extraction logfile from 13. June 2014, 20:07

Linkin Park / The Hunting Party

Used drive  : Optiarc BD ROM BC-5500S  Adapter: 3  ID: 0

Read mode              : Secure
Utilize accurate stream : Yes
Defeat audio cache      : Yes
Make use of C2 pointers : No

Read offset correction                      : 48
Overread into Lead-In and Lead-Out          : No
Fill up missing offset samples with silence : Yes
Delete leading and trailing silent blocks  : No
Null samples used in CRC calculations      : Yes
Used interface                              : Native Win32 interface for Win NT & 2000
Gap handling                                : Appended to previous track

Used output format              : User Defined Encoder
Selected bitrate                : 1024 kBit/s
Quality                        : High
Add ID3 tag                    : No
Command line compressor        : C:\Program Files (x86)\Exact Audio Copy\Flac\flac.exe
Additional command line options : -8 -V -T "ARTIST=%artist%" -T "TITLE=%title%" -T "ALBUM=%albumtitle%" -T "DATE=%year%" -T "TRACKNUMBER=%tracknr%" -T "GENRE=%genre%" -T "PERFORMER=%albuminterpret%" -T "COMPOSER=%composer%" %haslyrics%--tag-from-file=LYRICS="%lyricsfile%"%haslyrics% -T "ALBUMARTIST=%albumartist%" -T "DISCNUMBER=%cdnumber%" -T "TOTALDISCS=%totalcds%" -T "TOTALTRACKS=%numtracks%" -T "COMMENT=%comment%" %source% -o %dest%

TOC of the extracted CD

    Track |  Start  |  Length  | Start sector | End sector
    ---------------------------------------------------------
        1  |  0:00.00 |  3:38.41 |        0    |    16390 
        2  |  3:38.41 |  3:33.49 |    16391    |    32414 
        3  |  7:12.15 |  5:53.44 |    32415    |    58933 
        4  | 13:05.59 |  1:00.33 |    58934    |    63466 
        5  | 14:06.17 |  2:11.12 |    63467    |    73303 
        6  | 16:17.29 |  3:15.67 |    73304    |    87995 
        7  | 19:33.21 |  3:53.18 |    87996    |  105488 
        8  | 23:26.39 |  3:44.12 |    105489    |  122300 
        9  | 27:10.51 |  5:05.01 |    122301    |  145176 
      10  | 32:15.52 |  2:46.70 |    145177    |  157696 
      11  | 35:02.47 |  3:37.46 |    157697    |  174017 
      12  | 38:40.18 |  6:35.05 |    174018    |  203647 

Track  1

    Filename C:\Users\Sarah\Desktop\The Hunting Party\01 - Keys To The Kingdon.wav

    Pre-gap length  0:00:02.00

    Peak level 100.0 %
    Extraction speed 1.8 X
    Track quality 100.0 %
    Test CRC 17891FC6
    Copy CRC 17891FC6
    Track not present in AccurateRip database
    Copy OK

Track  2

    Filename C:\Users\Sarah\Desktop\The Hunting Party\02 - All For Nothing Feat. Page Hamilton.wav

    Pre-gap length  0:00:00.02

    Peak level 100.0 %
    Extraction speed 2.0 X
    Track quality 100.0 %
    Test CRC 026E5B04
    Copy CRC 026E5B04
    Track not present in AccurateRip database
    Copy OK

Track  3

    Filename C:\Users\Sarah\Desktop\The Hunting Party\03 - Guilty All The Same Feat. Rakim.wav

    Pre-gap length  0:00:00.02

    Peak level 100.0 %
    Extraction speed 1.9 X
    Track quality 99.9 %
    Test CRC CF3266F6
    Copy CRC CF3266F6
    Track not present in AccurateRip database
    Copy OK

Track  4

    Filename C:\Users\Sarah\Desktop\The Hunting Party\04 - The Summoning.wav

    Pre-gap length  0:00:00.02

    Peak level 100.0 %
    Extraction speed 1.7 X
    Track quality 100.0 %
    Test CRC 804110D9
    Copy CRC 804110D9
    Track not present in AccurateRip database
    Copy OK

Track  5

    Filename C:\Users\Sarah\Desktop\The Hunting Party\05 - War.wav

    Pre-gap length  0:00:00.02

    Peak level 100.0 %
    Extraction speed 1.4 X
    Track quality 99.9 %
    Test CRC 3B627FB2
    Copy CRC 3B627FB2
    Track not present in AccurateRip database
    Copy OK

Track  6

    Filename C:\Users\Sarah\Desktop\The Hunting Party\06 - Wastelands.wav

    Pre-gap length  0:00:00.02

    Peak level 100.0 %
    Extraction speed 1.8 X
    Track quality 99.9 %
    Test CRC E858B1F3
    Copy CRC E858B1F3
    Track not present in AccurateRip database
    Copy OK

Track  7

    Filename C:\Users\Sarah\Desktop\The Hunting Party\07 - Until It's Gone.wav

    Pre-gap length  0:00:00.02

    Peak level 100.0 %
    Extraction speed 2.7 X
    Track quality 100.0 %
    Test CRC BF6EE58C
    Copy CRC BF6EE58C
    Track not present in AccurateRip database
    Copy OK

Track  8

    Filename C:\Users\Sarah\Desktop\The Hunting Party\08 - Rebellion Feat. Daron Malakian.wav

    Pre-gap length  0:00:00.02

    Peak level 100.0 %
    Extraction speed 2.8 X
    Track quality 100.0 %
    Test CRC BA915DD1
    Copy CRC BA915DD1
    Track not present in AccurateRip database
    Copy OK

Track  9

    Filename C:\Users\Sarah\Desktop\The Hunting Party\09 - Mark The Graves.wav

    Pre-gap length  0:00:00.02

    Peak level 100.0 %
    Extraction speed 3.1 X
    Track quality 100.0 %
    Test CRC 224F1F3C
    Copy CRC 224F1F3C
    Track not present in AccurateRip database
    Copy OK

Track 10

    Filename C:\Users\Sarah\Desktop\The Hunting Party\10 - Drawbar Feat. Tom Morello.wav

    Pre-gap length  0:00:00.02

    Peak level 100.0 %
    Extraction speed 2.9 X
    Track quality 100.0 %
    Test CRC C4C34AF2
    Copy CRC C4C34AF2
    Track not present in AccurateRip database
    Copy OK

Track 11

    Filename C:\Users\Sarah\Desktop\The Hunting Party\11 - Final Masquerade.wav

    Pre-gap length  0:00:00.02

    Peak level 100.0 %
    Extraction speed 3.2 X
    Track quality 100.0 %
    Test CRC 651F8C6C
    Copy CRC 651F8C6C
    Track not present in AccurateRip database
    Copy OK

Track 12

    Filename C:\Users\Sarah\Desktop\The Hunting Party\12 - A Line In The Sand.wav

    Pre-gap length  0:00:00.02

    Peak level 100.0 %
    Extraction speed 2.9 X
    Track quality 99.9 %
    Test CRC 89099708
    Copy CRC 89099708
    Track not present in AccurateRip database
    Copy OK

None of the tracks are present in the AccurateRip database

No errors occurred

End of status report

---- CUETools DB Plugin V2.1.3

[CTDB TOCID: mjPcHBKSRmvD5WXwM.FIQ9l.6gI-] disk not present in database, Submit result: mjPcHBKSRmvD5WXwM.FIQ9l.6gI- has been uploaded

==== Log checksum 45FFD03FB286F01592FC6A5A61F7B4D13E7B0B7A8D0892C5AA94F9F624D5ED00 ====

Cue:

Code:

REM DATE 2014
REM DISCID 9F0A9B0C
REM COMMENT "ExactAudioCopy v1.0b3"
CATALOG 0093624937593
PERFORMER "Linkin Park"
TITLE "The Hunting Party"
FILE "01. Keys to the Kingdom.wav" WAVE
  TRACK 01 AUDIO
    TITLE "Keys to the Kingdom"
    PERFORMER "Linkin Park"
    ISRC USWB11401076
    INDEX 01 00:00:00
  TRACK 02 AUDIO
    TITLE "All for Nothing"
    PERFORMER "Linkin Park"
    ISRC USWB11401077
    INDEX 00 03:38:39
FILE "02. All for Nothing.wav" WAVE
    INDEX 01 00:00:00
  TRACK 03 AUDIO
    TITLE "Guilty All the Same"
    PERFORMER "Linkin Park"
    ISRC USWB11401337
    INDEX 00 03:33:47
FILE "03. Guilty All the Same.wav" WAVE
    INDEX 01 00:00:00
  TRACK 04 AUDIO
    TITLE "The Summoning"
    PERFORMER "Linkin Park"
    ISRC USWB11401078
    INDEX 00 05:53:42
FILE "04. The Summoning.wav" WAVE
    INDEX 01 00:00:00
  TRACK 05 AUDIO
    TITLE "War"
    PERFORMER "Linkin Park"
    ISRC USWB11401079
    INDEX 00 01:00:31
FILE "05. War.wav" WAVE
    INDEX 01 00:00:00
  TRACK 06 AUDIO
    TITLE "Wastelands"
    PERFORMER "Linkin Park"
    ISRC USWB11401015
    INDEX 00 02:11:10
FILE "06. Wastelands.wav" WAVE
    INDEX 01 00:00:00
  TRACK 07 AUDIO
    TITLE "Until It's Gone"
    PERFORMER "Linkin Park"
    ISRC USWB11401014
    INDEX 00 03:15:65
FILE "07. Until It's Gone.wav" WAVE
    INDEX 01 00:00:00
  TRACK 08 AUDIO
    TITLE "Rebellion"
    PERFORMER "Linkin Park"
    ISRC USWB11401080
    INDEX 00 03:53:16
FILE "08. Rebellion.wav" WAVE
    INDEX 01 00:00:00
  TRACK 09 AUDIO
    TITLE "Mark the Graves"
    PERFORMER "Linkin Park"
    ISRC USWB11401081
    INDEX 00 03:44:10
FILE "09. Mark the Graves.wav" WAVE
    INDEX 01 00:00:00
  TRACK 10 AUDIO
    TITLE "Drawbar"
    PERFORMER "Linkin Park"
    ISRC USWB11401082
    INDEX 00 05:04:74
FILE "10. Drawbar.wav" WAVE
    INDEX 01 00:00:00
  TRACK 11 AUDIO
    TITLE "Final Masquerade"
    PERFORMER "Linkin Park"
    ISRC USWB11401083
    INDEX 00 02:46:68
FILE "11. Final Masquerade.wav" WAVE
    INDEX 01 00:00:00
  TRACK 12 AUDIO
    TITLE "A Line in the Sand"
    PERFORMER "Linkin Park"
    ISRC USWB11401084
    INDEX 00 03:37:44
FILE "12. A Line in the Sand.wav" WAVE
    INDEX 01 00:00:00

Format: FLAC
Länge: 45:15
Enthalten: CUE, LOG, M3U

Webfind [X] Selfrip [ ]

Download (317MiB):

Bild anzeigen Linkin Park - The Hunting Party

Siehe meine Signatur für die enthaltenen Mirrors.






Jay-Z / Linkin Park - Numb/Encore (2004)


Linkin Park - LP Underground XIII (2013)


Linkin Park Discography 1997-2010



[MULTI] Linkin Park - Greatest Hits (2011)


Linkin Park - Discography [1997-2011]



Linkin Park - Greatest Hits 2CD (2011) [FLAC]